WWW.KANKALARFORUM.GEN.TR.TC




>>>>>>>>>>YÖNETİCİ : BY DAVUT<<<<<<<<<

<<<<<<] www.kankalarforum.gen.tr.tc [>>>>>>>>
WWW.KANKALARFORUM.GEN.TR.TC

<<<< KALİTELİ PAYLAŞIMIN ÖNCÜ İSMİ >>>>
 
AnasayfaAnasayfa  TakvimTakvim  Kayıt OlKayıt Ol  Giriş yap  
Tarıyıcı

 PoRTaL
 Indeks
 Üye Listesi
 Profil
 SSS
 Arama

 

Paylaş

Arama
 
 

Sonuç :
 
Rechercher çıkıntı araştırma
En son konular
» Riddick Günlükleri 1-2 Boxset DvdRip
Paz Haz. 27, 2010 8:21 pm tarafından canalbay

» NFS PRO STREET FULLL DİREK SERVERDEN
Ptsi Haz. 14, 2010 3:51 pm tarafından harlemmm

» Yilan Hikayesi 61.Bölümden 65.Bölüme Kadar eksık Bölümler
Cuma Haz. 11, 2010 5:49 pm tarafından sevgi

» AuToCaD 2010 FulL + SeRiaL
Çarş. Haz. 09, 2010 10:36 am tarafından pusat_05

» Kontrat - The Contract | 2007 | DVDRip XviD | RS-HF
Cuma Mayıs 21, 2010 6:31 am tarafından mert_67

» The Punisher: War Zone | Cezalandırıcı: Savaş Hattı | 2008 | DVDrip
Cuma Mayıs 21, 2010 6:12 am tarafından mert_67

» İntikam Ateşi | A Man Apart | 2003 | DVDrip
Cuma Mayıs 21, 2010 6:11 am tarafından mert_67

» Ben 10 : Uzaylı Kovanı | Ben 10 : Alien Swarm | 2009 | DVDRip | XviD | Multi
Cuma Mayıs 21, 2010 6:10 am tarafından mert_67

» Türk Malı | 7. Bölüm | DVBrip Xvid | HF - RS [ super goruntu ] 1 GB
Çarş. Nis. 28, 2010 5:40 am tarafından mert_67

» Türk Malı | Bölüm 7 | Mkv mert_67
Çarş. Nis. 28, 2010 5:37 am tarafından mert_67

» Türk Malı | Bölüm 7 | DVBRip | 2 Alt
Çarş. Nis. 28, 2010 5:34 am tarafından mert_67

» Çemberimde Gül Oya (2004) DVDRip XviD AC3 Tüm Bölümler
Ptsi Nis. 26, 2010 8:55 pm tarafından merber64

» AutoCAD 2009 Full indir /tek link
Ptsi Nis. 26, 2010 9:49 am tarafından paiwi

» İlk Gün | Training Day | 2001 | DVDRip
Paz Nis. 25, 2010 8:08 am tarafından mert_67

» Çılgın Kardeşler | Brothers Grimm | 2005 | DVDRip | XviD
Paz Nis. 25, 2010 8:07 am tarafından mert_67

Istatistikler
Toplam 348 kayıtlı kullanıcımız var
Son kaydolan kullanıcımız: gsliyim

Kullanıcılarımız toplam 3140 mesaj attılar bunda 2567 konu
<<< GÜNCEL >>>
REKLAM ALANI
<< EN YENİLER >>(TOP5)

 
 
 
 
 

Paylaş | 
 

 Avatar (2009)

Önceki başlık Sonraki başlık Aşağa gitmek 
YazarMesaj
mert_67
Astsubay KıdeMli Çavuş
Astsubay KıdeMli Çavuş
avatar

Mesaj Sayısı : 163
Kayıt tarihi : 02/05/09
Yaş : 18
Nerden : Kdz.ereğli / ZONGULDAK

MesajKonu: Avatar (2009)   Paz Ocak 10, 2010 9:35 am

FİLM BİLGİLERİ

Ripper ...........: IMAGiNE Rating.......:8.7/10
Video Codec.......:XVID
Audio Codec.......:MPEG Audio
Audio Bitrate.....:128
Runtime...........:2h 33mn
Subtitles.........:NIL
Language..........:ENGLISH
Resolution........:704 x 288
IMDb URL..........:[Linkleri görebilmek için üye olun veya giriş yapın.]


DETAILS:
General
Complete name : C:\Movies\Avatar.TS.XviD - IMAGiNE.avi
Format : AVI
Format/Info : Audio Video Interleave
File size : 1.50 GiB
Duration : 2h 33mn
Overall bit rate : 1 398 Kbps
Writing library : VirtualDub build 30091/release

Video
ID : 0
Format : MPEG-4 Visual
Format profile : Advanced Simple@L5
Format settings, BVOP : Yes
Format settings, QPel : No
Format settings, GMC : No warppoints
Format settings, Matrix : Custom
Codec ID : XVID
Codec ID/Hint : XviD
Duration : 2h 33mn
Bit rate : 1 264 Kbps
Width : 704 pixels
Height : 288 pixels
Display aspect ratio : 2.40:1
Frame rate : 25.000 fps
Resolution : 8 bits
Colorimetry : 4:2:0
Scan type : Progressive
Bits/(Pixel*Frame) : 0.249
Stream size : 1.36 GiB (90%)
Writing library : XviD 1.2.1 (UTC 2008-12-04)

Audio
ID : 1
Format : MPEG Audio
Format version : Version 1
Format profile : Layer 3
Mode : Joint stereo / MS Stereo
Codec ID : 55
Codec ID/Hint : MP3
Duration : 2h 33mn
Bit rate mode : Variable
Bit rate : 121 Kbps
Nominal bit rate : 128 Kbps
Channel(s) : 2 channels
Sampling rate : 44.1 KHz
Stream size : 134 MiB (9%)
Alignment : Aligned on interleaves
Interleave, duration : 26 ms (0.65 video frame)
Interleave, preload duration : 542 ms


İNDİRECEĞİNİZ LİNKTEKİ FİLMDEN GÖRÜNTÜLER













DOWNLOAD


[Linkleri görebilmek için üye olun veya giriş yapın.]


ALTYAZI

[Linkleri görebilmek için üye olun veya giriş yapın.]
Sayfa başına dön Aşağa gitmek
 
Avatar (2009)
Önceki başlık Sonraki başlık Sayfa başına dön 
1 sayfadaki 1 sayfası
 Similar topics
-
» PERFECT XP SP3 CD EDİTİON KACIRMAYIN DERİM
» Melih Görgün - Gel (2009) Orjinal Full Albüm

Bu forumun müsaadesi var:Bu forumdaki mesajlara cevap veremezsiniz
WWW.KANKALARFORUM.GEN.TR.TC :: HDDVD - HDTV - BluRay-DVD-DVİX-VCD DÜNYASI-vs.-
Buraya geçin: